logo
Main Page Sitemap

Top news

Someone set.The man said that the women arrived in felina escort barcelona Egypt to work as prostitutes, and the women were arrested.Bbw sluts Cairo, how d'ye do?An Egyptian court acquitted the women in the beginning of September, but prosecutors filed..
Read more
5 reference books on prostitution days ago 27:59 GotPorn russian, cute, dress Beautiful blue dress and stockings on a cocksucking blonde 3 years ago 04:58 AnyPorn dress, stockings 69 with my dads girl 8 years ago 08:47 Beeg dress, clothed..
Read more

Names of whores




names of whores

Wav Peak level 100.0 Extraction speed.3 X Track quality.9 Test CRC 551C410C Copy CRC 551C410C Accurately ripped (confidence 1) 2B41DD60 (AR v1) Copy OK Track 4 Filename C:Gotterdammerung Of Whores And Culture (flac)04 - Bleeding Wooer.
What does, whores mean?
Wav" wave track 03 audio title "The Prow" performer kellie blair escort "Gotterdammerung" index 01 00:00:00 file "04 - Bleeding Wooer.
Read mode : Secure, utilize accurate stream : Yes, defeat audio cache : Yes.Jenna/Jennifer, Jessie/Jessica, Tiffany, Brittany, Nicole, etc.Wav" wave track 04 audio title "Bleeding Wooer" performer "Gotterdammerung" index 01 00:00:00 file "05 - Whore Mill.Bobbi, shayla Kaylie Olivia J 1 decade ago 2 Thumbs up 1 Thumbs down Comment Kandie Tiffany Lola Renee Barbara M 1 decade ago 0 Thumbs up 1 Thumbs down Comment Alexis Trixie Roxie backyotomy 1 decade ago 0 Thumbs up 1 Thumbs down Comment.Wav Peak level 100.0 Extraction speed.7 X Track quality 100.0 Test CRC 337CFF74 Copy CRC 337CFF74 Accurately ripped (confidence 1) F5B4622C (AR v1) Copy OK Track 9 Filename C:Gotterdammerung Of Whores And Culture (flac)09 - Oblivion.International, what are whorish sounding girls names?No Deviation (04:04).Wav Peak level 100.0 Extraction speed.0 X Track quality 100.0 Test CRC 2522E201 Copy CRC 2522E201 Accurately ripped (confidence 1) 3F15271E (AR v1) Copy OK Track 5 Filename C:Gotterdammerung Of Whores And Culture (flac)05 - Whore Mill.Wav Peak level 100.0 Extraction speed.0 X Track quality 100.0 Test CRC 5FD92623 Copy CRC 5FD92623 Accurately ripped (confidence 1) (AR v1) Copy OK Track 10 Filename C:Gotterdammerung Of Whores And Culture (flac)10 - Infiltrate.The four women are based on the real life chicago escort directory death of three nuns and one social worker who were beaten, raped, and murdered by five members of the National Guard of El Salvador, which was armed and supported by the United States.If you like Cyaxares, you may also like: Bandcamp Daily your guide to the world of Bandcamp.
Beastmakers Trevor Church on the Bands Eight (!) Blistering New EPs.
Trendy choices - whether current or dated - are also popular.
Maybe you were looking for one of these abbreviations: whom, whon, whoo, whoosh, whore, whot, whou, whoup, whozat, whozit.
Wav" wave track 07 audio title "Vibroboy" performer "Gotterdammerung" index 01 00:00:00 file "08 - At Status.
Amber, tiffany, stacie, crystal, chantal, missy, leanne.
Ten Bands Taking Black Metal to Outer Space.
Whores is a play by Lee Blessing.What are whorish sounding girls names?Delete leading and trailing silent blocks :.Used interface : Native Win32 interface for Win NT 2000.Wav" wave track 01 audio title "Warhorse" performer "Gotterdammerung" index 01 00:00:00 file "02 - First-in-Man.Whores features Raoul de Raoul, a fictional Central American dictator of an unnamed country.Wav Peak level 100.0 Extraction speed.6 X Track quality.9 Test CRC FF3321AC Copy CRC FF3321AC Accurately ripped (confidence 1) 1CE52EB1 (AR v1) Copy OK Track 7 Filename C:Gotterdammerung Of Whores And Culture (flac)07 - Vibroboy.And current wife Annette Bening (married 1992).

Answers, best Answer:  Summer, autumn.
You are the least consistent people on the face of the earth." Raoul realizes that he has little power without the backing of the United States; his sexual impotence develops analogously.
See more know the definition for, whores?


[L_RANDNUM-10-999]

Most popular

Prostitution laws in south africa

This project has been dragging on for close to 20 years for 10 of which I have been a proud ally in the ranks of inspirational and brave sex workers and sex worker human rights advocates calling for the decriminalisation


Read more

John oliver last week tonight sex ed

Russian Presient Vladimir Putin unintentionally brings up the Double Standard of women having to control their emotions in what is the legal definition of prostitution the workplace.Unfortunately, when it was brought back down it turned out the geckos had frozen


Read more

Rajasthan prostitution area

If you're wondering how the young girls get into this life, it is her father or brother who ends up acting as her pimp, taking care of all the arrangements.She is fourteen years old and the bidding war for prostitution


Read more

What is maturity date on investment

In finance, maturity or maturity date refers to the final payment date of a loan or other financial instrument, at which point the principal (and all remaining interest ) is due to be paid.You have to wait for the bond


Read more

Jenny thompson escort agency

Yet now, at the age of 21, ten reasons not to legalize prostitution she advertises herself as 'Juicy Jeni the 1,200-a-time hooker whose charms Wayne Rooney price of escort hydra crane apparently found so irresistible.10 Despite the injunction, the actor's


Read more

Receptionist at brothel sydney

Not yet, but who knows what today brings?The curviness of her elbow and wrist was something else that bank hall brothel liverpool caught his glance, and he watched her slow moves with fascination.And this was not happening!Paris australia's best brothel


Read more

Sitemap